<?xml version="1.0" standalone="no"?>
<!DOCTYPE svg PUBLIC "-//W3C//DTD SVG 1.1//EN" "http://www.w3.org/Graphics/SVG/1.1/DTD/svg11.dtd" >
<svg xmlns="http://www.w3.org/2000/svg">
<metadata>Generated by IcoMoon</metadata>
<defs>
<font id="icomoon" horiz-adv-x="1024">
<font-face units-per-em="1024" ascent="960" descent="-64" />
<missing-glyph horiz-adv-x="1024" />
<glyph unicode="&#x20;" horiz-adv-x="512" d="" />
<glyph unicode="&#xe800;" horiz-adv-x="1021" d="M474.699 291.616c39.811 36.659 47.867 84.526 52.303 133.327 2.568 28.954 1.985 58.257 3.386 87.328 1.518 32.806 7.589 64.328 29.771 90.48 20.664 24.284 46.816 37.943 79.039 37.943 72.851 0.117 145.819 0.584 218.67-0.117 56.156-0.584 101.454-45.765 102.505-102.272 0.817-49.151 0.817-98.302 0-147.453-0.934-54.054-46.583-100.287-100.871-100.637-126.905-0.817-253.811-0.467-380.716-0.467-0.817 0.117-1.751 0.817-4.086 1.868zM694.419 541.457c29.070 0 56.623-0.117 84.059 0.117 12.375 0.117 25.218 1.401 24.751 18.213-0.467 15.644-12.609 16.578-24.517 16.578-31.289 0-62.577 0.117-93.866 0-31.055 0-35.958-5.020-35.958-35.492 0-51.836 0-103.673 0.117-155.392 0-6.421 0.117-13.076 1.751-19.263 2.802-10.858 11.325-17.396 21.715-14.477 7.589 2.101 14.827 8.873 19.73 15.411 2.919 3.969 1.401 11.441 1.518 17.396 0.117 21.482 0 42.847 0 66.547 24.634 0 47.75 0 70.75 0 12.142 0 23.817 1.634 23.35 17.512-0.467 14.477-11.208 16.345-22.999 16.228-23.116-0.233-46.116-0.117-70.166-0.117-0.233 19.263-0.233 36.776-0.233 56.74zM871.176 434.399c0 20.431 0.117 40.862 0 61.41-0.117 13.076-5.837 22.065-19.73 22.766-14.243 0.817-20.898-8.523-21.131-21.131-0.584-41.446-0.817-82.891-0.117-124.22 0.233-12.842 6.304-23.233 21.949-21.949 14.243 1.167 18.796 10.741 18.913 23.466 0.233 19.847 0.117 39.694 0.117 59.658zM871.176 556.634c-0.233 13.893-9.223 22.766-20.898 21.715-12.375-1.051-20.431-8.056-20.081-20.781s8.172-19.73 21.131-19.263c12.726 0.35 19.497 7.589 19.847 18.329z" />
<glyph unicode="&#xe801;" horiz-adv-x="1021" d="M178.275 425.526c7.238 26.852 14.477 53.588 21.715 80.44 4.67 17.162 9.106 34.441 14.243 51.486 4.32 14.36 13.309 22.649 29.537 22.299 15.761-0.35 23.466-9.223 27.202-22.883 10.858-38.994 21.482-77.988 32.223-116.865 1.401-4.903 2.919-9.807 5.604-18.68 10.624 47.050 20.431 90.13 30.121 133.21 0.7 3.152 1.401 6.304 2.335 9.34 3.853 12.142 12.025 17.746 24.634 15.294 13.076-2.452 18.096-11.675 15.761-23.933-4.203-21.131-9.106-42.146-14.243-63.044-9.34-38.293-18.796-76.47-28.603-114.53-3.619-14.36-9.69-26.268-27.786-26.385-17.863-0.117-24.634 11.091-28.603 25.568-12.842 46.816-25.568 93.632-39.227 144.067-3.152-9.69-5.604-16.345-7.472-22.999-11.091-40.045-21.949-80.089-32.923-120.134-4.086-15.061-10.858-26.852-29.537-26.502-18.329 0.35-23.7 13.076-27.202 27.086-14.243 56.506-28.487 112.896-41.329 169.752-1.868 8.406 1.051 21.248 6.771 27.319 10.858 11.441 28.136 4.086 32.456-13.66 9.457-38.177 17.746-76.704 26.385-114.997 1.518-6.771 3.035-13.66 4.436-20.548 1.401-0.35 2.452-0.467 3.502-0.7z" />
<glyph unicode="&#xe802;" horiz-adv-x="1021" d="M410.137 436.15c0 19.964 0 39.928 0 60.009 0 13.426 6.304 22.182 20.197 22.182 12.959 0 19.847-8.406 19.964-20.898 0.35-41.562 0.35-83.125-0.117-124.804-0.117-12.959-6.421-21.832-21.015-21.131s-19.030 10.391-19.147 23.116c0 20.431 0.117 40.979 0.117 61.526 0 0 0 0 0 0z" />
<glyph unicode="&#xe803;" horiz-adv-x="1021" d="M450.649 557.568c-1.051-13.076-8.639-19.38-21.365-19.263-12.142 0.117-20.081 9.106-19.030 21.248 1.051 12.375 8.756 18.213 20.431 18.68 11.558 0.35 20.314-9.106 19.964-20.664z" />
<glyph unicode="&#xe804;" horiz-adv-x="1021" d="M694.419 541.457c0-19.964 0-37.593 0-56.623 24.050 0 47.050-0.117 70.166 0.117 11.908 0.117 22.532-1.751 22.999-16.228 0.467-15.878-11.208-17.512-23.35-17.512-22.999 0-46.116 0-70.75 0 0-23.7 0.117-45.065 0-66.547 0-5.954 1.518-13.426-1.518-17.396-4.903-6.538-12.142-13.309-19.73-15.411-10.391-2.919-18.913 3.619-21.715 14.477-1.634 6.188-1.751 12.842-1.751 19.263-0.117 51.836-0.117 103.673-0.117 155.392 0 30.471 5.020 35.492 35.958 35.492 31.289 0 62.577 0 93.866 0 12.025 0 24.050-0.934 24.517-16.578 0.584-16.812-12.375-18.096-24.751-18.213-27.319-0.35-54.755-0.233-83.825-0.233z" />
<glyph unicode="&#xe805;" horiz-adv-x="1021" d="M871.176 434.399c0-19.964 0.117-39.811 0-59.775-0.117-12.726-4.67-22.299-18.913-23.466-15.644-1.284-21.832 9.106-21.949 21.949-0.7 41.446-0.584 82.891 0.117 124.22 0.233 12.609 6.771 21.949 21.131 21.131 13.893-0.7 19.614-9.69 19.73-22.766 0-20.431-0.117-40.862-0.117-61.293z" />
<glyph unicode="&#xe806;" horiz-adv-x="1021" d="M871.176 556.634c-0.35-10.741-7.122-17.979-19.964-18.446-12.959-0.467-20.781 6.655-21.131 19.263-0.35 12.842 7.705 19.73 20.081 20.781 11.792 1.167 20.781-7.705 21.015-21.598z" />
<glyph unicode="&#xe807;" horiz-adv-x="1021" d="M990.96 542.391c-1.518 61.176-47.4 115.698-107.875 123.87-32.923 4.436-66.78 2.919-100.17 3.035-10.157 0-16.462 3.269-23.116 10.974-58.608 68.298-133.327 107.992-222.756 115.114-112.195 8.756-206.645-29.888-281.13-114.997-6.538-7.472-12.726-11.325-23.116-10.974-25.918 0.817-51.836 0.584-77.754 0.233-69.932-1.167-128.423-56.856-130.174-125.505-1.284-52.42-1.167-104.84 0-157.26 1.284-60.125 48.1-114.297 107.759-122.236 32.923-4.32 66.78-1.868 100.17-3.736 7.472-0.35 16.812-4.086 21.598-9.573 135.778-157.26 372.544-156.676 508.089 1.284 4.086 4.787 12.375 8.172 18.796 8.406 26.385 0.934 52.887 0.117 79.389 0.35 71.45 0.934 129.474 58.841 130.408 130.291 0.35 24.284 0 48.684 0 72.968 0 25.801 0.584 51.836-0.117 77.754zM521.165 750.787c-12.259-1.167-10.507-7.705-10.391-37.593 0-8.056-0.934-16.228 0-24.167-0.934 7.822 0 16.111 0 24.167-0.117 29.888-1.868 36.425 10.391 37.593zM371.844 194.247c0.35 2.568 1.634 5.604 4.086 8.639-2.452-3.035-3.736-5.954-4.086-8.639zM381.65 555.117c-4.203-21.131-9.106-42.146-14.243-63.044-9.34-38.293-18.796-76.47-28.603-114.53-3.619-14.36-9.69-26.268-27.786-26.385-17.863-0.117-24.634 11.091-28.603 25.568-12.842 46.816-25.568 93.632-39.227 144.067-3.152-9.69-5.604-16.345-7.472-22.999-11.091-40.045-21.949-80.089-32.923-120.134-4.086-15.061-10.858-26.852-29.537-26.502-18.329 0.35-23.7 13.076-27.202 27.086-14.243 56.506-28.487 112.896-41.329 169.752-1.868 8.406 1.051 21.248 6.771 27.202 10.858 11.441 28.136 4.086 32.456-13.66 9.457-38.177 17.746-76.704 26.385-114.997 1.518-6.771 3.035-13.66 4.436-20.548 1.051-0.117 2.101-0.35 3.152-0.467 7.238 26.852 14.477 53.588 21.715 80.44 4.67 17.162 9.106 34.441 14.243 51.486 4.32 14.36 13.309 22.649 29.537 22.299 15.761-0.35 23.466-9.223 27.202-22.883 10.858-38.994 21.482-77.988 32.223-116.865 1.401-5.020 2.919-9.807 5.604-18.68 10.624 47.050 20.431 90.13 30.121 133.21 0.7 3.152 1.401 6.304 2.335 9.34 3.853 12.142 12.025 17.746 24.634 15.294 13.543-2.568 18.563-11.792 16.111-24.050zM398.112 199.851v0c1.167 1.401 2.335 2.802 3.386 4.086-1.051-1.284-2.218-2.685-3.386-4.086zM388.539 257.408c10.858 0.7 21.949 1.167 32.69 0-10.741 1.167-21.832 0.7-32.69 0zM436.405 192.613c-0.467 0.35-0.934 0.584-1.284 0.934 0.467-0.35 0.934-0.584 1.284-0.934v0zM450.298 372.639c-0.117-12.959-6.421-21.832-21.015-21.131s-19.030 10.391-19.147 23.116c-0.117 20.548 0 41.095 0 61.526 0 0 0 0 0.117 0 0 19.964 0 39.928 0 60.009 0 13.426 6.304 22.182 20.197 22.182 12.959 0 19.847-8.406 19.964-20.898 0.233-41.679 0.35-83.242-0.117-124.804zM429.284 538.305c-12.142 0.117-20.081 9.106-19.030 21.248 1.051 12.375 8.756 18.213 20.431 18.68 11.558 0.467 20.314-8.99 19.964-20.548-1.051-13.309-8.639-19.497-21.365-19.38zM522.799 183.273c-0.35 0.467-0.7 0.817-1.167 1.284 0.467-0.467 0.817-0.817 1.167-1.284v0zM533.307 216.546c4.787-4.436 8.756-9.223 12.375-13.893-3.619 4.787-7.589 9.457-12.375 13.893zM559.341 248.652c0.35 2.218 2.335 4.086 4.553 6.071-2.218-1.868-4.32-3.853-4.553-6.071zM585.727 221.567c0-4.553-0.35-9.106-0.35-13.776 0 4.553 0.35 9.223 0.35 13.776 0.117 10.040-0.233 17.396 0 22.649-0.233-5.254 0.117-12.609 0-22.649zM605.574 206.739v0c1.751-0.934 3.502-2.101 5.254-3.152-1.751 1.051-3.502 2.218-5.254 3.152zM605.691 236.043v0c1.051-0.934 1.985-2.218 3.035-3.269-0.934 1.051-1.985 2.335-3.035 3.269zM960.372 390.852c-0.934-54.054-46.583-100.287-100.871-100.637-126.905-0.817-253.811-0.467-380.716-0.467-0.934 0-1.868 0.817-4.086 1.751 39.811 36.659 47.867 84.526 52.303 133.327 2.568 28.954 1.985 58.257 3.386 87.328 1.518 32.806 7.589 64.328 29.771 90.48 20.664 24.284 46.816 37.943 79.039 37.943 72.851 0.117 145.819 0.584 218.67-0.117 56.156-0.584 101.454-45.765 102.505-102.272 0.934-49.034 0.817-98.185 0-147.336z" />
<glyph unicode="&#xe808;" horiz-adv-x="1021" d="M216.568 458.215c0 93.515 0 187.031 0 280.546 0 24.984 9.457 34.441 34.558 34.441 187.264 0 374.529 0 561.91 0 25.101 0 34.558-9.457 34.558-34.441 0-187.264 0-374.529 0-561.91 0-25.685-9.223-34.791-35.025-34.791-187.615 0-375.113 0-562.727-0.117-10.974 0-21.598 1.284-27.319 11.208-3.619 6.304-5.604 14.594-5.604 21.949-0.467 94.333-0.35 188.665-0.35 283.115zM460.689 217.48c0 59.308 0 118.149 0 177.925 4.32 0 7.705 0 11.091 0 34.091 0.233 68.181-0.233 102.155 0.934 63.628 2.218 110.094 30.588 133.677 91.531 9.106 23.466 12.259 47.867 11.208 73.084-2.685 60.242-45.765 115.114-104.023 129.007-21.365 5.137-43.897 7.355-65.963 7.705-65.262 1.051-130.408 0.467-195.67 0.467-2.218 0-4.553-0.233-7.238-0.467 0-160.296 0-320.241 0-480.303 38.41 0.117 76.12 0.117 114.764 0.117z" />
<glyph unicode="&#xe809;" horiz-adv-x="1021" d="M460.689 217.48c-38.527 0-76.237 0-114.764 0 0 160.062 0 320.007 0 480.303 2.685 0.233 4.903 0.467 7.238 0.467 65.262 0 130.408 0.584 195.67-0.467 22.065-0.35 44.598-2.685 65.963-7.705 58.257-13.776 101.338-68.648 104.023-129.007 1.051-25.101-2.101-49.618-11.208-73.084-23.583-60.943-70.049-89.313-133.677-91.531-33.974-1.167-68.064-0.7-102.155-0.934-3.386 0-6.771 0-11.091 0 0-60.009 0-118.733 0-178.041zM457.070 484.601c15.177-3.035 89.896-1.167 103.206 2.452 13.543 3.619 24.751 10.507 32.923 22.299 29.070 42.38 4.553 95.5-47.050 99.47-26.735 2.101-53.588 0.817-80.44 1.518-7.355 0.233-9.223-2.218-9.223-9.34 0.35-36.075 0.117-72.15 0.117-108.226 0-2.802 0.35-5.604 0.467-8.172z" />
<glyph unicode="&#xe80a;" horiz-adv-x="1021" d="M457.070 484.601c-0.117 2.568-0.35 5.487-0.35 8.289 0 36.075 0.117 72.15-0.117 108.226-0.117 7.122 1.868 9.457 9.223 9.34 26.852-0.7 53.704 0.467 80.44-1.518 51.603-4.086 76.12-57.090 47.050-99.47-8.056-11.792-19.263-18.68-32.923-22.299-13.426-3.736-88.145-5.604-103.322-2.568z" />
<glyph unicode="&#xe80b;" horiz-adv-x="1290" d="M1214.65 343.335c-2.101-7.939-4.086-15.995-6.538-23.817-12.259-38.994-57.674-60.476-95.267-44.598-20.081 8.523-29.888 25.101-30.121 45.999-0.117 15.177 3.619 30.471 5.604 45.649l-0.233-0.233c1.751 2.685 3.619 5.254 5.137 8.056 16.695 30.238 51.369 44.831 84.643 35.258 16.812-4.787 27.786-15.761 33.273-32.223 1.167-3.386 2.335-6.771 3.502-10.040 0-8.172 0-16.111 0-24.050zM1176.473 349.056c-1.401 17.396-6.188 27.202-16.812 30.121-10.157 2.802-22.766-3.035-28.487-16.462-4.787-11.325-7.589-23.933-8.756-36.192-0.934-10.157 2.568-20.548 14.594-23.583 11.325-2.919 20.548 2.335 25.568 11.675 5.954 10.858 9.34 22.999 13.893 34.441z" />
<glyph unicode="&#xe80c;" horiz-adv-x="1290" d="M801.594 402.176c-2.335 30.705-4.553 60.826-6.771 91.647-7.822-0.934-9.924 5.837-12.726 13.193-45.765 118.967-130.408 193.802-256.146 216.218-100.987 17.979-191.818-9.573-269.455-77.054-55.455-48.217-90.83-108.926-106.241-180.61-16.929-79.039-7.005-154.925 29.537-227.309 3.736-7.355 8.639-7.122 14.944-7.122 158.895 0 317.906 0 476.8 0 26.035 0 52.070 0.467 77.988-0.233 8.639-0.233 13.426 2.452 16.228 10.391 2.685 7.355 5.837 14.71 16.929 10.624 0.934 10.157 1.751 18.913 2.568 28.020 10.274-5.721 19.964-11.091 31.872-17.746-10.741-21.248-21.715-43.314-33.39-65.029-1.284-2.335-6.771-3.152-10.274-3.152-41.562-0.233-83.125-0.117-124.571-0.117-158.544 0-317.205 0.117-475.75-0.233-8.289 0-12.726 2.335-16.812 9.573-40.745 71.567-58.958 148.27-48.918 229.994 16.228 132.626 82.541 233.497 202.675 293.272 125.154 62.344 249.491 52.77 366.006-23.933 85.927-56.623 137.179-138.697 156.91-239.801 2.335-12.025 3.035-24.284 5.020-36.425 0.934-5.604-0.7-8.172-6.304-10.274-9.807-3.619-19.030-8.639-30.121-13.893z" />
<glyph unicode="&#xe80d;" horiz-adv-x="1290" d="M1088.445 366.451c-19.73 7.939-34.791 2.335-45.065-16.695-10.741-19.73-10.624-41.679-12.842-63.161-0.467-5.020-0.584-10.040-0.934-16.462-10.974 0-21.949-2.218-31.289 0.817-5.604 1.868-8.639 11.675-12.259 17.045-8.056-4.32-17.979-11.441-29.187-15.061-8.406-2.685-18.563-2.101-27.553-0.584-12.142 2.101-20.664 11.792-19.73 24.984 1.518 20.664 5.721 41.212 8.99 61.877 0.934 5.721 2.335 11.325 3.736 18.096-4.203 0.233-7.939 0.467-12.259 0.7-0.467-2.335-1.051-4.32-1.167-6.304-1.401-22.182-15.761-33.74-35.141-38.644-17.279-4.436-35.375-6.188-53.237-9.223-1.167-14.477 7.355-24.4 23.817-23.583 17.162 0.817 34.324 3.853 51.253 5.954 0-10.741-9.924-25.218-22.416-29.654-17.629-6.304-35.842-8.639-54.288-4.553-18.913 4.086-28.136 12.842-40.278 38.060-0.7-9.807-1.167-17.629-1.634-25.451-0.467-7.589-0.934-15.061-1.518-23.583-16.345 0-32.106-0.7-47.75 0.233-8.406 0.584-11.675 7.238-11.208 15.761 1.868 32.456 3.502 64.912 5.137 97.368 0.7 14.010 1.518 28.020 0.934 42.73-1.401-2.568-2.919-5.137-4.203-7.822-20.081-44.364-40.395-88.612-59.658-133.21-4.32-9.924-10.741-14.010-20.314-14.594-10.391-0.584-20.898-0.7-31.405-0.117-10.391 0.584-16.812 5.954-16.812 17.162-0.233 34.324-0.467 68.531-0.7 102.855-0.117 14.477 0 28.837-1.401 44.131-1.284-2.919-2.685-5.837-3.736-8.873-15.995-45.182-31.989-90.363-48.1-135.545-6.304-17.746-10.040-20.664-29.304-20.314-7.589 0.117-15.294 1.634-22.883 2.568 1.518 2.568 3.619 5.020 4.553 7.822 23.233 67.247 46.349 134.494 69.465 201.741 1.051 3.035 1.401 6.188 2.101 9.34l-0.233-0.35c3.853 1.284 7.705 3.502 11.675 3.502 19.847 0.467 39.694 0.467 59.542 0.467 10.974 0 15.644-4.553 15.878-17.162 0.467-29.654 0.233-59.191 0.35-88.846 0-8.99 0-17.979 1.751-27.786 1.401 2.452 2.919 4.903 4.086 7.472 16.345 36.892 32.923 73.785 48.801 110.911 4.086 9.457 10.391 14.944 20.197 15.177 21.598 0.467 43.080 0.117 66.196 0.117-2.452-43.43-4.903-86.16-7.355-129.007 11.091 23.817 26.619 43.080 52.537 50.669 25.218 7.355 49.968 8.289 70.633-14.594 1.868 5.37 3.502 10.157 5.254 15.177 2.452 0.117 4.553 0.584 6.655 0.35 8.523-1.167 12.959 1.634 16.929 10.274 7.822 17.512 25.451 18.68 43.080 22.182-1.634-11.091-3.152-20.898-4.903-32.223 10.741 0 20.664 0 31.639 0-2.568-10.974-4.67-20.314-7.122-30.471-10.391 0-20.314 0-32.223 0-4.203-23.35-9.223-46.116-12.259-69.232-1.634-12.375 5.37-16.812 17.629-14.010 17.512 3.969 19.847 6.538 22.766 23.466 5.020 28.72 10.391 57.44 15.878 87.561 10.157 0.467 20.431 1.518 30.822 1.401 8.406-0.117 12.726-4.086 9.69-13.309-1.284-3.969-1.634-8.172-2.568-13.309 21.365 25.218 30.938 30.004 51.486 26.502-2.919-13.776-5.954-27.436-8.873-41.095 0.117 0.117 0.35 0.35 0.35 0.35zM822.492 349.756c13.193 2.685 24.634 3.969 35.258 7.589 9.807 3.386 13.66 13.543 10.040 20.664-3.269 6.421-13.076 8.639-22.065 4.32-12.492-5.721-19.73-15.878-23.233-32.573z" />
<glyph unicode="&#xe80e;" horiz-adv-x="1290" d="M483.689 264.413c-3.386 1.868-7.122 3.269-10.274 5.487-31.289 23.35-62.46 46.583-93.515 70.283-6.071 4.67-10.157 5.254-16.578 0.35-32.106-23.933-64.679-47.283-97.018-70.866-3.386-2.452-7.005-4.787-12.609-8.756 10.507 32.456 20.314 62.46 30.004 92.465 3.853 12.025 7.355 24.167 11.908 35.958 2.802 7.355 1.401 11.441-5.020 15.995-32.69 23.233-64.912 46.933-97.368 70.399-3.035 2.218-5.954 4.67-11.675 9.223 7.005 0 10.741 0 14.594 0 39.694 0 79.389 0.35 119.2-0.233 8.99-0.117 12.375 2.919 14.944 11.091 11.908 38.177 24.517 76.12 36.892 114.18 1.051 3.269 2.335 6.538 4.436 12.025 1.985-5.137 3.269-8.289 4.32-11.441 12.375-38.060 24.984-76.003 36.776-114.18 2.919-9.34 7.238-11.908 16.695-11.792 39.694 0.584 79.389 0.35 119.2 0.117 3.853 0 7.589-1.985 11.441-3.035 0 0 0.233 0.35 0.233 0.35-3.035-1.868-6.188-3.502-9.106-5.604-33.040-23.933-66.080-47.867-98.886-72.034-5.254-3.853-9.223-4.67-15.411-1.868-58.374 26.152-118.383 47.75-179.792 65.262-10.157 2.919-20.431 5.137-30.588 7.822 3.386-3.386 7.355-5.020 11.325-6.655 45.182-18.446 88.962-39.461 129.357-67.247 51.019-35.258 86.394-83.942 116.515-137.296z" />
<glyph unicode="&#xe80f;" horiz-adv-x="1290" d="M1136.195 236.394c-2.218 14.243-9.924 15.878-33.624 7.589-3.853 8.873-1.634 14.594 8.523 15.528 7.122 0.7 14.36 1.518 21.365 0.817 12.609-1.167 18.446-7.355 19.38-20.314 1.167-14.243 1.401-28.603 2.218-44.014-6.771 1.167-14.477-4.67-15.995 3.619-10.040-1.284-19.964-4.203-29.537-3.386-8.523 0.7-14.944 7.472-14.944 17.045 0 9.69 4.903 16.812 14.477 19.030 8.99 2.101 18.329 2.685 28.136 4.086zM1136.312 226.353c-7.472-1.284-14.36-1.751-20.314-3.969-2.568-0.934-5.37-6.421-4.787-9.106 0.584-2.568 5.137-5.721 8.289-6.188 9.69-1.634 15.761 4.903 16.812 19.263z" />
<glyph unicode="&#xe810;" horiz-adv-x="1290" d="M1018.863 236.277c-1.284 14.010-11.675 16.462-33.273 7.355-3.853 8.523-2.919 14.477 7.705 15.644 6.421 0.817 12.842 1.751 19.263 1.401 15.177-0.934 21.598-6.888 22.416-21.949 0.817-13.893 0.117-27.903 0.117-43.664-5.254 1.401-10.624 2.919-15.995 4.436-8.289-1.167-17.863-3.969-27.086-3.269-9.106 0.817-15.644 7.589-15.528 17.746 0.117 9.807 5.37 16.578 14.944 18.68 8.99 1.751 18.213 2.452 27.436 3.619zM1019.447 225.886c-6.888-0.817-12.959-0.233-17.863-2.452-3.619-1.634-5.487-6.888-8.172-10.507 3.969-2.101 8.056-5.954 12.025-5.721 9.807 0.467 13.776 7.355 14.010 18.68z" />
<glyph unicode="&#xe811;" horiz-adv-x="1290" d="M866.156 208.607c0.817 21.015 4.32 23.233 42.029 27.319 0.35 14.243-7.589 16.228-33.040 8.172-3.502 8.99-1.051 14.594 8.99 15.528 6.771 0.584 13.66 1.401 20.431 0.817 12.842-1.167 18.68-6.655 19.964-19.73 1.401-14.594 1.518-29.304 2.335-46.583-7.472 2.335-12.609 3.969-20.314 6.421-16.228-10.507-28.37-8.873-40.745 8.406l0.35-0.35zM908.769 225.886c-6.538-0.817-12.609-0.35-17.629-2.568-3.386-1.518-5.37-6.538-7.939-9.924 3.619-2.218 7.122-6.071 10.858-6.421 9.223-0.584 14.36 5.954 14.71 18.913z" />
<glyph unicode="&#xe812;" horiz-adv-x="1290" d="M1204.376 261.611c-0.467-7.005-0.7-10.157-0.934-14.010-5.721 0.35-11.091 1.401-16.228 0.7-3.269-0.467-6.188-3.619-9.223-5.487 2.335-2.335 4.32-5.254 7.122-6.888 3.736-2.101 9.223-1.985 11.792-4.787 4.553-4.903 10.040-11.325 10.157-17.162 0-5.254-5.487-12.259-10.507-15.644-9.106-6.188-20.898-5.487-35.375-0.934 0 3.853 0 7.589 0 11.208 7.355-0.584 14.127-1.868 20.781-1.401 2.568 0.233 5.954 3.853 6.771 6.538 0.467 1.634-2.919 5.37-5.254 6.771-3.736 2.101-8.99 1.868-11.908 4.553-4.67 4.203-9.573 9.573-11.208 15.294-2.218 7.705 2.919 14.944 10.274 16.812 10.157 2.919 21.248 3.035 33.74 4.436z" />
<glyph unicode="&#xe813;" horiz-adv-x="1290" d="M1091.364 258.226c-0.467-3.736-0.817-6.771-1.167-9.807-24.167-1.401-31.172-7.238-29.304-23.933 1.518-13.776 9.573-18.096 30.355-15.528 0.584-3.619 1.051-7.355 1.634-10.858-16.695-7.005-33.857-3.969-43.080 7.122-9.34 11.208-9.924 31.405-1.401 43.547 8.289 11.792 24.517 15.644 42.963 9.457z" />
<glyph unicode="&#xe814;" horiz-adv-x="1290" d="M865.806 208.958c-0.233-3.853-0.584-7.822-0.817-11.558-18.796-6.071-34.791-2.685-43.547 9.106-8.406 11.325-8.289 31.405 0.117 42.847 8.523 11.441 24.4 14.944 41.562 9.223 0-3.386 0-6.771 0-11.091-2.218 0.117-3.969 0.117-5.604 0.35-8.289 0.934-16.111 0.7-20.898-7.589-4.903-8.639-4.787-17.512 0.7-25.568 5.137-7.589 12.959-8.056 21.365-6.071 2.335 0.584 5.020 0.117 7.472 0.117 0-0.117-0.35 0.233-0.35 0.233z" />
<glyph unicode="&#xe815;" horiz-adv-x="1290" d="M954.535 196.349c-6.421 0-11.441 0-16.812 0 0 21.131 0 41.796 0 62.927 7.005-0.233 16.111 4.787 14.944-7.589 6.771 3.619 13.776 7.472 22.883 12.375 0-8.639 0-13.776 0-19.030-15.761 0.35-20.314-3.736-20.898-19.847-0.467-9.223-0.117-18.563-0.117-28.837z" />
<glyph unicode="&#xe816;" glyph-name="igris" d="M0-4.003v906.010c7.875 29.758 27.273 48.435 56.11 57.993h911.781c29.698-9.759 48.575-29.578 56.11-59.997v-902.002c-14.508-44.086-37.293-60.578-83.543-60.578q-429.118 0-858.256 0c-7.334 0-14.849-0.301-22.043 1.122-31.922 6.513-51.040 26.832-60.157 57.452zM76.55 449.904q0-195.983 0-391.946c0-4.669 0-9.338 0.14-14.027 0.41-16.826 13.786-30.397 30.493-31.119l0.066-0.002c3.326-0.24 6.673-0.16 10.020-0.16h793.45c0.971-0.038 2.111-0.060 3.256-0.060 2.38 0 4.738 0.095 7.071 0.28l-0.308-0.020c13.847 1.583 23.446 8.737 28.395 21.943 2.164 5.791 2.004 11.763 2.004 17.755v792.949c0 3.326 0.12 6.673-0.2 10.020-1.643 17.334-14.348 29.237-31.802 29.918-4.008 0.16-8.016 0-12.023 0h-787.478c-4.348 0-8.697 0-13.025-0.18-8.801-0.361-16.605-4.343-22.014-10.486l-0.030-0.034c-7.635-8.016-8.156-17.755-8.156-27.935q0.22-198.428 0.14-396.895zM575.745 637.971c17.695 0 35.389 0.16 53.084 0 12.144-0.14 13.045-1.723 7.655-12.645q-84.405-170.733-168.87-341.447c-6.713-13.566-12.785-27.033-8.617-42.964 5.471-20.901 22.925-34.167 48.555-36.070 3.77-0.265 8.169-0.416 12.604-0.416 15.953 0 31.45 1.957 46.262 5.643l-1.314-0.277c12.545 2.866 13.867 1.262 9.839-10.901-9.659-29.077-19.498-58.114-29.097-87.21-1.717-5.926-5.342-10.838-10.153-14.151l-0.087-0.056c-52.102-35.289-126.848-31.502-174.661 9.038-39.477 33.485-55.048 92.34-37.233 140.675 12.785 34.668 34.648 64.506 51.921 96.789 13.827 25.85 28.516 51.26 43.244 76.63 4.268 7.354 2.365 9.058-5.33 8.998-23.045-0.2-46.090-0.1-69.115 0-3.186 0-7.615-1.303-9.118 2.184-1.884 4.348 3.046 6.012 5.471 8.457 58.987 57.4 113.162 119.016 162.305 184.618l2.918 4.070c4.669 6.212 9.839 9.238 17.594 9.118 17.454-0.261 34.788-0.080 52.142-0.080zM636.163 695.043c-24.588 0.601-47.753 7.294-66.289 25.931-24.227 24.328-23.125 57.492 2.826 79.976 35.309 30.6 93.943 30.6 129.172 0.22 27.133-23.386 27.113-60.117 0-83.583-18.536-16.091-40.579-22.263-65.708-22.544z" />
<glyph unicode="&#xe817;" glyph-name="email-icon-contact" horiz-adv-x="1548" d="M155.221 799.212c36.022-18.993 536.397-291.776 555.062-301.6s37.659-14.409 67.131-14.409 48.466 4.585 67.131 14.409c18.666 9.824 519.041 282.607 555.062 301.6 13.426 6.877 36.022 19.321 40.934 33.402 8.514 24.888-0.655 34.384-37.004 34.384h-1252.247c-36.349 0-45.518-9.824-37.004-34.384 4.912-14.409 27.508-26.525 40.934-33.402zM1428.098 784.476c-26.853-13.754-267.871-185.348-427.349-288.501l269.181-302.91c6.549-6.549 9.497-14.409 5.894-18.338-3.93-3.602-12.444-1.637-19.321 4.585l-322.886 272.455c-48.793-31.437-83.177-53.050-89.072-56.325-25.215-12.771-42.899-14.409-67.131-14.409s-41.916 1.637-67.131 14.409c-6.222 3.275-40.279 24.888-89.072 56.325l-322.886-272.455c-6.549-6.549-15.391-8.514-19.321-4.585-3.93 3.602-0.982 11.789 5.567 18.338l268.853 302.91c-159.478 103.153-403.116 274.748-429.969 288.501-28.817 14.736-30.455-2.62-30.455-16.046s0-671.314 0-671.314c0-30.455 44.863-68.441 76.956-68.441h1214.915c32.092 0 70.406 38.314 70.406 68.441 0 0 0 658.216 0 671.314 0 13.754 1.965 30.782-27.18 16.046z" />
</font>
</defs>
</svg>
